BoomTorrents.com - The #1 BitTorrent Source Advanced Search
BoomTorrents.com
LoginRegister Browse TorrentsSearch CloudUpload a torrentStatisticsInvite a FriendFAQ 
BoomTorrents.com

 





Browse TV torrents

Smithsonian Channel - Civil War 360 - Series 1 (2013) Torrent Download


Download Smithsonian Channel - Civil War 360 - Series 1 (2013) full version torrent for free from BoomTorrents.com

Download Torrent: Smithsonian Channel - Civil War 360 - Series 1 (2013)Smithsonian Channel - Civil War 360 - Series 1 (2013) Download Torrent
Tip: Download anonymously and use a VPN to protect your privacy
Info hash: 583502c610390022f500a1ac4be0e53c18f9e326
Tracker: http://tracker.thepiratebay.org/announce
Category: Categories > TV > TV - Other
Seeds: 20099  
Leechers: 1982
Health: Torrent health: 10
Total Size: 3.39 GB
Number of files: 7   View torrent files >
Downloaded: 6
Private: no
Torrent added: 2014-06-09 13:00:54
More Torrents: Related to Smithsonian Channel - Civil War 360 - Series 1 (2013)
Download Direct: Download Torrent: Smithsonian Channel - Civil War 360 - Series 1 (2013)Smithsonian Channel - Civil War 360 - Series 1 (2013) Download Direct



Torrent files list (total 3.39 GB in 7 files):
Icon for folder[Civil War 360 (2013) [Mini-Series]]
Icon for document filetypebackdrop.jpg (293.34 KB)
Icon for document filetypebanner.jpg (95.32 KB)
Icon for document filetypefolder.jpg (99.59 KB)
Icon for document filetypeseries.xml (1.22 KB)
Icon for document filetypeCivil.War.360.Series.1.1of3.The.Union.720p.HDTV.x264.AACk.mp4 (1.12 GB)
Icon for document filetypeCivil.War.360.Series.1.2of3.The.Confederacy.720p.HDTV.x264.AACk.mp4 (1.13 GB)
Icon for document filetypeCivil.War.360.Series.1.3of3.Fight.for.Freedom.720p.HDTV.x264.AACk.mp4 (1.13 GB)


Torrent Description

Smithsonian Channel - Civil War 360: Series 1 (2013)
====================================================
HDTV | 1280x720 | MKV/x264 @ 3000 Kbps | 3x51mn | Audio: English AAC 160 kbps, 2 channels | Subs: None | 3x1.12 GB
Genre: Documentary


Take a journey back in time and immerse yourself in a 150-year-old battle that nearly split our nation in two. This three-part series explores famous and little known aspects of the Civil War, from the perspectives of the Union, the Confederacy and the millions of enslaved people struggling for freedom. Hosted by Ashley Judd, Trace Adkins, and Dennis Haysbert, all of whom had ancestors greatly affected by the war; this series delivers fresh insights and untold tales, brought to life through dramatic recreations and the Smithsonian Institution\'s vast collection of artifacts.

Part 1: The Union
=================
We all know who won the Civil War, but there were many moments when victory was anything but certain. Join Ashley Judd, great-great-great granddaughter of a Union soldier, as she takes us back 150 years for an intimate and comprehensive look at the North\'s battles and struggles during those bloody four years. From iconic artifacts like Old Glory to small objects like field medical kits and soldiers\' photos, discover the stunning backstories of seemingly ordinary pieces from our past.

Part 2: The Confederacy
=======================
Slave badges from South Carolina. Sheet music filled with boasts of triumph. The jewelry of the First Lady of the Confederacy. Smithsonian curators have collected thousands of Confederate objects from the Civil War, which collectively offer a rich understanding of the South\'s viewpoint during this pivotal era in American history. Join country music singer Trace Adkins, whose ancestors fought for the South, as he follows the rise and fall of the Confederacy, from the men who fought to define \"freedom\" on their own terms to those who were caught in the wake of war.

Part 3: Fight for Freedom
=========================
A century and a half ago, North battled South in a conflict that would kill more Americans than any other war. The outcome would change our nation forever, and no one had more to gain, or to lose, than American slaves. Join actor Dennis Haysbert as he looks at their struggles through the objects in the Smithsonian\'s collection. From a child\'s shackles to the inkwell Lincoln used to write the Emancipation Proclamation, these artifacts transport us to a brutal and complicated time when our country tore itself apart.

Video
-----
ID : 1
Format : AVC
Format/Info : Advanced Video Codec
Format profile : [email protected]
Format settings, CABAC : Yes
Format settings, ReFrames : 4 frames
Codec ID : avc1
Codec ID/Info : Advanced Video Coding
Duration : 51mn 5s
Bit rate mode : Variable
Bit rate : 3 000 Kbps
Width : 1 280 pixels
Height : 720 pixels
Display aspect ratio : 16:9
Frame rate mode : Constant
Frame rate : 25.000 fps
Color space : YUV
Chroma subsampling : 4:2:0
Bit depth : 8 bits
Scan type : Progressive
Bits/(Pixel*Frame) : 0.130
Stream size : 1.06 GiB (95%)
Writing library : x264 core 130 r2273 b3065e6
Encoding settings : cabac=1 / ref=1 / deblock=1:0:0 / analyse=0x3:0x113 / me=hex / subme=2 / psy=1 / psy_rd=1.00:0.00 / mixed_ref=0 / me_range=16 / chroma_me=1 / trellis=0 / 8x8dct=1 / cqm=0 / deadzone=21,11 / fast_pskip=1 / chroma_qp_offset=0 / threads=3 / lookahead_threads=1 / sliced_threads=0 / nr=0 / decimate=1 / interlaced=0 / bluray_compat=0 / constrained_intra=0 / bframes=3 / b_pyramid=2 / b_adapt=1 / b_bias=0 / direct=1 / weightb=1 / open_gop=0 / weightp=1 / keyint=250 / keyint_min=25 / scenecut=40 / intra_refresh=0 / rc_lookahead=10 / rc=abr / mbtree=1 / bitrate=3000 / ratetol=1.0 / qcomp=0.60 / qpmin=0 / qpmax=69 / qpstep=4 / vbv_maxrate=62500 / vbv_bufsize=78125 / nal_hrd=none / ip_ratio=1.40 / aq=1:1.00
Encoded date : UTC 2014-05-23 14:56:48
Tagged date : UTC 2014-05-23 15:59:03
Color primaries : BT.709-5, BT.1361, IEC 61966-2-4, SMPTE RP177
Transfer characteristics : BT.709-5, BT.1361
Matrix coefficients : BT.709-5, BT.1361, IEC 61966-2-4 709, SMPTE RP177

Audio
-----
ID : 2
Format : AAC
Format/Info : Advanced Audio Codec
Format version : Version 4
Format profile : LC
Codec ID : 40
Duration : 51mn 5s
Bit rate mode : Variable
Bit rate : 160 Kbps
Maximum bit rate : 296 Kbps
Channel(s) : 2 channels
Channel positions : Front: L R
Sampling rate : 48.0 KHz
Compression mode : Lossy
Stream size : 58.5 MiB (5%)
Encoded date : UTC 2014-05-23 14:56:48
Tagged date : UTC 2014-05-23 15:59:03


Comments (please add your comment)

No comments




BoomTorrents.com
Recommended
BoomTorrents.com


Home - Browse Torrents - Upload Torrent - Copyright Compliance - Statistics - FAQ - Login
Bitcoin: 1u9atSRNBmTAsvVaSSd8DdrFJvJ6kgBgV